fatdemo.co.uk - The Largest Bittorent System Login   |    Register
Latest Articles
Most searched
Hot torrents
Movie Torrents
View Torrent Info: Incredibles 2 (2018) [720p] [YTS] [YIFY]
View Torrent Info: BlacKkKlansman (2018) [720p] [YTS] [YIFY]
View Torrent Info: Adam Sandler: 100% Fresh (2018) [720p] [YTS] [YIFY]
View Torrent Info: Juliet, Naked (2018) [720p] [YTS] [YIFY]
View Torrent Info: The Dark (2018) [720p] [YTS] [YIFY]
View Torrent Info: Satyameva Jayate (2018) [720p] [YTS] [YIFY]
View Torrent Info: An Interview with God (2018) [720p] [YTS] [YIFY]
View Torrent Info: Galveston (2018) [720p] [YTS] [YIFY]
View Torrent Info: The Night Comes for Us (2018) [720p] [YTS] [YIFY]
View Torrent Info: Malicious (2018) [720p] [YTS] [YIFY]
Hot torrents
TV Torrents
View Torrent Info: The.Walking.Dead.S09E03.HDTV.x264-SVA[eztv]
View Torrent Info: Supergirl.S04E02.HDTV.x264-SVA[eztv]
View Torrent Info: Blindspot.S04E02.HDTV.x264-SVA[eztv]
View Torrent Info: How.to.Get.Away.with.Murder.S05E04.HDTV.x264-KILLERS[eztv]
View Torrent Info: Arrow.S07E02.HDTV.x264-SVA[eztv]
View Torrent Info: DCs.Legends.of.Tomorrow.S04E01.HDTV.x264-SVA[eztv]
View Torrent Info: The.Flash.2014.S05E03.HDTV.x264-SVA[eztv]
View Torrent Info: Titans.2018.S01E02.WEB.x264-PHOENiX[eztv]
View Torrent Info: The.Big.Bang.Theory.S12E05.HDTV.x264-SVA[eztv]
View Torrent Info: the.last.ship.s05e07.webrip.x264-tbs[eztv]
fatdemo.co.uk > Categories > TV torrents > Deadliest Catch torrents


Browse TV torrents

Deadliest Catch - The Complete Second Season - 3 Disc Set - DVD-R [RLG] torrent



Download torrent: Magnet link Bookmark Torrent: Deadliest Catch - The Complete Second Season - 3 Disc Set - DVD-R [RLG] Download Deadliest Catch - The Complete Second Season - 3 Disc Set - DVD-R [RLG] torrent (magnet link)
Info hash: 12B9021636BEDE97B11080AA90E7E704427D5832
Category: Categories > TV torrents > Deadliest Catch torrents
Trackers:
15    View all torrent trackers >
Health:
 seeds: 0 ,  leechers: 3 |  Update >
Torrent language:  
Total Size: 22.21 GB
Torrent status: Added by trusted uploader Added by trusted uploader Trusted Uploader Site Friend Superman Sun
Uploader: Trusted Uploader Site Friend Superman Sun
 

Download Deadliest Catch - The Complete Second Season - 3 Disc Set - DVD-R [RLG] via Magnet Link




Torrent Description




INFO

http://www.imdb.com/title/tt0446809/

Video
ID : 224 (0xE0)
Format : MPEG Video
Format version : Version 2
Format profile : [email protected]
Format settings, BVOP : Yes
Format settings, Matrix : Custom
Format settings, GOP : Variable
Format settings, picture st : Frame
Duration : 22mn 50s
Bit rate mode : Variable
Bit rate : 5 917 Kbps
Maximum bit rate : 9 800 Kbps
Width : 720 pixels
Height : 480 pixels
Display aspect ratio : 4:3
Frame rate : 29.970 (30000/1001) fps
Standard : NTSC
Color space : YUV
Chroma subsampling : 4:2:0
Bit depth : 8 bits
Scan type : Interlaced
Scan order : Top Field First
Compression mode : Lossy
Bits/(Pixel*Frame) : 0.571
Time code of first frame : 01:42:43;00
Time code source : Group of pictures header
GOP, Open/Closed : Open
GOP, Open/Closed of first f : Closed
Stream size : 967 MiB (94%)

Audio
ID : 189 (0xBD)-128 (0x80)
Format : AC-3
Format/Info : Audio Coding 3
Mode extension : CM (complete main)
Format settings, Endianness : Big
Muxing mode : DVD-Video
Duration : 22mn 50s
Bit rate mode : Constant
Bit rate : 224 Kbps
Channel(s) : 2 channels
Channel positions : Front: L R
Sampling rate : 48.0 KHz
Frame rate : 31.250 fps (1536 spf)
Compression mode : Lossy
Stream size : 36.6 MiB (4%)

Plot

A documentary series chronicling the real-life high-sea adventures of the Alaskan crab fishermen. This is the most deadly profession in the world.

For Newer Users
Simply Drag downloaded folder to your Media Player. This is a NTSC DVD
This is ripped so you would have best quality, menu, bonus/special feature, language options etc
Note: DVDs may not have have all* featues

Screenshots









#redlegsgreaves -> To avoid fakes, ALWAYS check that the torrent was added on fatdemo.co.uk by redlegsgreaves

http://fatdemo.co.uk/




Comments (please add your comment)
No comments



Home - Browse Torrents - Upload Torrent - Stat - Forum - FAQ - Login
fatdemo.co.uk is in compliance with copyrights
2006-2018 fatdemo.co.uk
SitemapV88 Android 6.0 Smart TV BOX 4K Latest RK3229 Quad Core 8GB HD 1080P WIFI Media$25.99 7d left | S03E03: Escorpion and the Red Hand | Assistir O Mundo Sombrio de Sabrina Dublado Online