fatdemo.co.uk - The Largest Bittorent System Login   |    Register
Latest Articles
Most searched
Hot torrents
Movie Torrents
View Torrent Info: Venom (2018) [720p] [YTS] [YIFY]
View Torrent Info: Smallfoot (2018) [720p] [YTS] [YIFY]
View Torrent Info: The Bouncer (2018) [720p] [YTS] [YIFY]
View Torrent Info: Blood Brother (2018) [720p] [YTS] [YIFY]
View Torrent Info: The Hitman Agency (2018) [720p] [YTS] [YIFY]
View Torrent Info: The Immortal Wars (2018) [720p] [YTS] [YIFY]
View Torrent Info: Time Jumpers (2018) [720p] [YTS] [YIFY]
View Torrent Info: [Cargo] (2018) [720p] [YTS] [YIFY]
View Torrent Info: Swiped (2018) [720p] [YTS] [YIFY]
View Torrent Info: Elliot the Littlest Reindeer (2018) [720p] [YTS] [YIFY]
Hot torrents
TV Torrents
View Torrent Info: Arrow.S07E08.HDTV.x264-SVA[eztv]
View Torrent Info: The.Flash.2014.S05E08.HDTV.x264-KILLERS[eztv]
View Torrent Info: Supergirl.S04E08.HDTV.x264-SVA[eztv]
View Torrent Info: DCs.Legends.of.Tomorrow.S04E07.HDTV.x264-SVA[eztv]
View Torrent Info: The.Good.Doctor.S02E10.HDTV.x264-SVA[eztv]
View Torrent Info: Supernatural.S14E07.HDTV.x264-SVA[eztv]
View Torrent Info: Legacies.S01E05.HDTV.x264-SVA[eztv]
View Torrent Info: vikings.s05e11.web.h264-convoy[eztv]
View Torrent Info: Bull.2016.S03E09.HDTV.x264-SVA[eztv]
View Torrent Info: Blindspot.S04E07.WEB.H264-MEMENTO[eztv]
fatdemo.co.uk > Categories > TV torrents > Deadliest Catch torrents


Browse TV torrents

Deadliest Catch - Season 6 - 4 Disc Set - DVD-R [RLG] torrent



Download torrent: Magnet link Bookmark Torrent: Deadliest Catch - Season 6 - 4 Disc Set - DVD-R [RLG] Download Deadliest Catch - Season 6 - 4 Disc Set - DVD-R [RLG] torrent (magnet link)
Info hash: 3F8B3C72ED0B7FA118289D0C1B018DE3D534A398
Category: Categories > TV torrents > Deadliest Catch torrents
Trackers:
15    View all torrent trackers >
Health:
 seeds: 4 ,  leechers: 5 |  Update >
Torrent language:  
Total Size: 28.02 GB
Torrent status: Added by trusted uploader Added by trusted uploader Trusted Uploader Site Friend Superman Sun
Uploader: Trusted Uploader Site Friend Superman Sun
 

Download Deadliest Catch - Season 6 - 4 Disc Set - DVD-R [RLG] via Magnet Link




Torrent Description



INFO

http://www.imdb.com/title/tt0446809/

Video
ID : 224 (0xE0)
Format : MPEG Video
Format version : Version 2
Format profile : [email protected]
Format settings, BVOP : Yes
Format settings, Matrix : Custom
Format settings, GOP : Variable
Format settings, picture st : Frame
Duration : 25mn 22s
Bit rate mode : Variable
Bit rate : 5 339 Kbps
Maximum bit rate : 9 800 Kbps
Width : 720 pixels
Height : 480 pixels
Display aspect ratio : 16:9
Frame rate : 29.970 (30000/1001) fps
Standard : NTSC
Color space : YUV
Chroma subsampling : 4:2:0
Bit depth : 8 bits
Scan type : Interlaced
Scan order : Top Field First
Compression mode : Lossy
Bits/(Pixel*Frame) : 0.515
Time code of first frame : 00:59:59;00
Time code source : Group of pictures header
Stream size : 969 MiB (95%)

Audio
ID : 189 (0xBD)-128 (0x80)
Format : AC-3
Format/Info : Audio Coding 3
Mode extension : CM (complete main)
Format settings, Endianness : Big
Muxing mode : DVD-Video
Duration : 25mn 21s
Bit rate mode : Constant
Bit rate : 192 Kbps
Channel(s) : 2 channels
Channel positions : Front: L R
Sampling rate : 48.0 KHz
Frame rate : 31.250 fps (1536 spf)
Compression mode : Lossy
Stream size : 34.8 MiB (3%)

Plot

A documentary series chronicling the real-life high-sea adventures of the Alaskan crab fishermen. This is the most deadly profession in the world.

For Newer Users
Simply Drag downloaded folder to your Media Player. This is a NTSC DVD
This is ripped so you would have best quality, menu, bonus/special feature, language options etc
Note: DVDs may not have have all* featues

Screenshots








#redlegsgreaves -> To avoid fakes, ALWAYS check that the torrent was added on fatdemo.co.uk by redlegsgreaves

http://fatdemo.co.uk/




Comments (please add your comment)
No comments



Home - Browse Torrents - Upload Torrent - Stat - Forum - FAQ - Login
fatdemo.co.uk is in compliance with copyrights
2006-2018 fatdemo.co.uk
SitemapThe Best Data Recovery Software of 2012 MegaPack. | Cuộc Giải Cứu Thần Kỳ Mary Poppins (1964) | Andrea Oldani