fatdemo.co.uk - The Largest Bittorent System Login   |    Register
Latest Articles
Most searched
Hot torrents
Movie Torrents
View Torrent Info: Mowgli: Legend of the Jungle (2018) [720p] [YTS] [YIFY]
View Torrent Info: Goosebumps 2: Haunted Halloween (2018) [720p] [YTS] [YIFY]
View Torrent Info: Assassination Nation (2018) [720p] [YTS] [YIFY]
View Torrent Info: Asher (2018) [720p] [YTS] [YIFY]
View Torrent Info: The Mermaid: Lake of the Dead (2018) [720p] [YTS] [YIFY]
View Torrent Info: Under the Silver Lake (2018) [720p] [YTS] [YIFY]
View Torrent Info: The Festival (2018) [720p] [YTS] [YIFY]
View Torrent Info: Alla vet (2018) [720p] [YTS] [YIFY]
View Torrent Info: Born Racer (2018) [720p] [YTS] [YIFY]
View Torrent Info: Cinderella: The Enchanted Beginning (2018) [720p] [YTS] [YIFY]
Hot torrents
TV Torrents
View Torrent Info: The.Flash.2014.S05E08.HDTV.x264-KILLERS[eztv]
View Torrent Info: Arrow.S07E08.HDTV.x264-SVA[eztv]
View Torrent Info: The.Big.Bang.Theory.S12E10.HDTV.x264-SVA[eztv]
View Torrent Info: The.Flash.2014.S05E09.HDTV.x264-SVA[eztv]
View Torrent Info: DCs.Legends.of.Tomorrow.S04E07.HDTV.x264-SVA[eztv]
View Torrent Info: The.Good.Doctor.S02E10.HDTV.x264-SVA[eztv]
View Torrent Info: Vikings.S05E12.WEBRip.x264-ION10[eztv]
View Torrent Info: Supernatural.S14E08.HDTV.x264-SVA[eztv]
View Torrent Info: the.gifted.s02e09.web.x264-tbs[eztv]
View Torrent Info: Young.Sheldon.S02E10.HDTV.x264-KILLERS[eztv]
fatdemo.co.uk > Categories > Movies torrents > MP4 torrents


Browse Movies torrents

Captain America: The Winter Soldier(2014)MPEG-4[DaScubaDude] torrent



Download torrent: Download Captain America: The Winter Soldier(2014)MPEG-4[DaScubaDude] torrent Magnet link Bookmark Torrent: Captain America: The Winter Soldier(2014)MPEG-4[DaScubaDude] Captain America: The Winter Soldier(2014)MPEG-4[DaScubaDude] torrent | if not working, try instead: Magnet Link
Info hash: BE5C30A8012E7359B6D28250AB647D568AC81E04
Category: Categories > Movies torrents > MP4 torrents
Trackers:
14    View all torrent trackers >
Health:
 seeds: 2 ,  leechers: 0 |  Update >
Torrent language:  
Total Size: 1.40 GB
Torrent status: Added by trusted uploader Added by trusted uploader Trusted Uploader Site Friend Superman Sun
Uploader: Trusted Uploader Site Friend Superman Sun
Torrent added: 2016-11-23 00:00:00
 

Download Captain America: The Winter Soldier(2014)MPEG-4[DaScubaDude] torrent if not working, try downloading torrent using Download Captain America: The Winter Soldier(2014)MPEG-4[DaScubaDude] via Magnet Link




Torrent Description


[youtube]82RKQPgeYRs[/youtube]
Captain America: The Winter Soldier (2014)
PG-13 | 2h 16min | Action, Adventure, Sci-Fi | 4 April 2014 (USA)
As Steve Rogers struggles to embrace his role in the modern world, he teams up with a fellow Avenger and S.H.I.E.L.D agent, Black Widow, to battle a new threat from history: an assassin known as the Winter Soldier.
Directors: Anthony Russo, Joe Russo
Writers: Christopher Markus (screenplay), Stephen McFeely (screenplay) |
Stars: Chris Evans, Samuel L. Jackson, Scarlett Johansson

General
Complete name : CaptainAmericaWinterSoldier\CAPTAIN_AMERICA_Title1.mp4
Format : MPEG-4
Format profile : Base Media
Codec ID : isom (isom/iso2/avc1/mp41)
File size : 1.38 GiB
Duration : 2h 15mn
Overall bit rate : 1 459 Kbps
Movie name : CAPTAIN_AMERICA
Genre : Action
Writing application : Lavf54.6.100

Video
ID : 1
Format : AVC
Format/Info : Advanced Video Codec
Format profile : [email protected]
Format settings, CABAC : No
Format settings, ReFrames : 6 frames
Codec ID : avc1
Codec ID/Info : Advanced Video Coding
Duration : 2h 15mn
Bit rate : 1 205 Kbps
Width : 720 pixels
Height : 404 pixels
Display aspect ratio : 16:9
Frame rate mode : Constant
Frame rate : 29.970 (30000/1001) fps
Color space : YUV
Chroma subsampling : 4:2:0
Bit depth : 8 bits
Scan type : Progressive
Bits/(Pixel*Frame) : 0.138
Stream size : 1.14 GiB (83%)

Audio
ID : 2
Format : AAC
Format/Info : Advanced Audio Codec
Format profile : LC
Codec ID : 40
Duration : 2h 15mn
Bit rate mode : Constant
Bit rate : 248 Kbps
Channel(s) : 2 channels
Channel(s)_Original : 6 channels
Channel positions : Front: L C R, Side: L R, LFE
Sampling rate : 44.1 KHz
Frame rate : 43.066 fps (1024 spf)
Compression mode : Lossy
Stream size : 240 MiB (17%)
Default : Yes
Alternate group : 1

General
Complete name : CaptainAmericaWinterSoldier\CAPTAIN_AMERICA_Title1.mp4
Format : MPEG-4
Format profile : Base Media
Codec ID : isom (isom/iso2/avc1/mp41)
File size : 1.38 GiB
Duration : 2h 15mn
Overall bit rate : 1 459 Kbps
Movie name : CAPTAIN_AMERICA
Genre : Action
Writing application : Lavf54.6.100

Video
ID : 1
Format : AVC
Format/Info : Advanced Video Codec
Format profile : [email protected]
Format settings, CABAC : No
Format settings, ReFrames : 6 frames
Codec ID : avc1
Codec ID/Info : Advanced Video Coding
Duration : 2h 15mn
Bit rate : 1 205 Kbps
Width : 720 pixels
Height : 404 pixels
Display aspect ratio : 16:9
Frame rate mode : Constant
Frame rate : 29.970 (30000/1001) fps
Color space : YUV
Chroma subsampling : 4:2:0
Bit depth : 8 bits
Scan type : Progressive
Bits/(Pixel*Frame) : 0.138
Stream size : 1.14 GiB (83%)

Audio
ID : 2
Format : AAC
Format/Info : Advanced Audio Codec
Format profile : LC
Codec ID : 40
Duration : 2h 15mn
Bit rate mode : Constant
Bit rate : 248 Kbps
Channel(s) : 2 channels
Channel(s)_Original : 6 channels
Channel positions : Front: L C R, Side: L R, LFE
Sampling rate : 44.1 KHz
Frame rate : 43.066 fps (1024 spf)
Compression mode : Lossy
Stream size : 240 MiB (17%)
Default : Yes
Alternate group : 1



#Dascubadude -> To avoid fakes, ALWAYS check that the torrent was added on fatdemo.co.uk by Dascubadude

http://fatdemo.co.uk/



Download Captain America: The Winter Soldier(2014)MPEG-4[DaScubaDude] torrent


Comments (please add your comment)
No comments



Home - Browse Torrents - Upload Torrent - Stat - Forum - FAQ - Login
fatdemo.co.uk is in compliance with copyrights
2006-2018 fatdemo.co.uk
SitemapWSS premium | CineStar | Morgan Griffin