fatdemo.co.uk - The Largest Bittorent System Login   |    Register
Latest Articles
Most searched
Hot torrents
Movie Torrents
View Torrent Info: Smallfoot (2018) [720p] [YTS] [YIFY]
View Torrent Info: The Bouncer (2018) [720p] [YTS] [YIFY]
View Torrent Info: Blood Brother (2018) [720p] [YTS] [YIFY]
View Torrent Info: The Immortal Wars (2018) [720p] [YTS] [YIFY]
View Torrent Info: Down River (2018) [720p] [YTS] [YIFY]
View Torrent Info: I'll Be Next Door for Christmas (2018) [720p] [YTS] [YIFY]
View Torrent Info: Born Racer (2018) [720p] [YTS] [YIFY]
View Torrent Info: Swiped (2018) [720p] [YTS] [YIFY]
View Torrent Info: Under the Silver Lake (2018) [720p] [YTS] [YIFY]
View Torrent Info: Elliot the Littlest Reindeer (2018) [720p] [YTS] [YIFY]
Hot torrents
TV Torrents
View Torrent Info: The.Flash.2014.S05E08.HDTV.x264-KILLERS[eztv]
View Torrent Info: Arrow.S07E08.HDTV.x264-SVA[eztv]
View Torrent Info: Supergirl.S04E08.HDTV.x264-SVA[eztv]
View Torrent Info: DCs.Legends.of.Tomorrow.S04E07.HDTV.x264-SVA[eztv]
View Torrent Info: The.Good.Doctor.S02E10.HDTV.x264-SVA[eztv]
View Torrent Info: Supernatural.S14E07.HDTV.x264-SVA[eztv]
View Torrent Info: the.gifted.s02e09.web.x264-tbs[eztv]
View Torrent Info: lethal.weapon.s03e09.web.x264-tbs[eztv]
View Torrent Info: Legacies.S01E05.HDTV.x264-SVA[eztv]
View Torrent Info: seal.team.s02e09.web.h264-memento[eztv]
fatdemo.co.uk > Categories > Movies torrents > HD torrents


Browse Movies torrents

Captain America The Winter Soldier 2014 1080p BluRay x264 DTS 5.1 - MRG torrent



Download torrent: Download Captain America The Winter Soldier 2014 1080p BluRay x264 DTS 5.1 - MRG torrent Magnet link Bookmark Torrent: Captain America The Winter Soldier 2014 1080p BluRay x264 DTS 5.1 - MRG Captain America The Winter Soldier 2014 1080p BluRay x264 DTS 5.1 - MRG torrent | if not working, try instead: Magnet Link
Info hash: 7AB46BA926CB4E38FA7BD49FD8DBDF48BECFD279
Category: Categories > Movies torrents > HD torrents
Trackers:
14    View all torrent trackers >
Health:
 seeds: 12 ,  leechers: 10 |  Update >
Torrent language:  
Total Size: 8.10 GB
Torrent status: Added by trusted uploader Added by trusted uploader Trusted Uploader Site Friend Superman Sun
Uploader: Trusted Uploader Site Friend Superman Sun
Torrent added: 2017-08-08 17:30:40
 

Download Captain America The Winter Soldier 2014 1080p BluRay x264 DTS 5.1 - MRG torrent if not working, try downloading torrent using Download Captain America The Winter Soldier 2014 1080p BluRay x264 DTS 5.1 - MRG via Magnet Link




Torrent Description

Captain America The Winter Soldier 2014 1080p BluRay x264 DTS 5.1 - MRG

ImDb: http://www.imdb.com/title/tt1843866



Complete name : Captain America The Winter Soldier (2014) 1080p BluRay x264 DTS 5.1 - MRG.mkv
Format : Matroska
Format version : Version 4 / Version 2
File size : 7.95 GiB
Duration : 2 h 15 min
Overall bit rate : 8 370 kb/s
Movie name : Captain America: The Winter Soldier (2014)- [email protected]
Encoded date : UTC 2017-07-19 09:06:47
Writing application : mkvmerge v11.0.0 ('Alive') 64bit
Writing library : libebml v1.3.4 + libmatroska v1.4.5

Video
ID : 1
Format : AVC
Format/Info : Advanced Video Codec
Format profile : [email protected]
Format settings, CABAC : Yes
Format settings, ReFrames : 5 frames
Codec ID : V_MPEG4/ISO/AVC
Duration : 2 h 15 min
Bit rate : 6 858 kb/s
Width : 1 920 pixels
Height : 800 pixels
Display aspect ratio : 2.40:1
Frame rate mode : Constant
Frame rate : 23.976 (24000/1001) FPS
Color space : YUV
Chroma subsampling : 4:2:0
Bit depth : 8 bits
Scan type : Progressive
Bits/(Pixel*Frame) : 0.186
Stream size : 6.51 GiB (82%)
Writing library : x264 core 150 r2833 df79067
Encoding settings : cabac=1 / ref=5 / deblock=1:-1:-1 / analyse=0x3:0x133 / me=umh / subme=9 / psy=1 / psy_rd=1.00:0.15 / mixed_ref=1 / me_range=24 / chroma_me=1 / trellis=2 / 8x8dct=1 / cqm=0 / deadzone=21,11 / fast_pskip=0 / chroma_qp_offset=-3 / threads=12 / lookahead_threads=1 / sliced_threads=0 / nr=200 / decimate=1 / interlaced=0 / bluray_compat=0 / constrained_intra=0 / bframes=3 / b_pyramid=2 / b_adapt=2 / b_bias=0 / direct=3 / weightb=1 / open_gop=0 / weightp=2 / keyint=250 / keyint_min=23 / scenecut=40 / intra_refresh=0 / rc_lookahead=60 / rc=2pass / mbtree=1 / bitrate=6858 / ratetol=1.0 / qcomp=0.60 / qpmin=0 / qpmax=69 / qpstep=4 / cplxblur=20.0 / qblur=0.5 / ip_ratio=1.40 / aq=1:1.00
Language : English
Default : Yes
Forced : No

Audio
ID : 2
Format : DTS
Format/Info : Digital Theater Systems
Mode : 16
Format settings, Endianness : Big
Codec ID : A_DTS
Duration : 2 h 15 min
Bit rate mode : Constant
Bit rate : 1 509 kb/s
Channel(s) : 6 channels
Channel positions : Front: L C R, Side: L R, LFE
Sampling rate : 48.0 kHz
Frame rate : 93.750 FPS (512 spf)
Bit depth : 24 bits
Compression mode : Lossy
Stream size : 1.43 GiB (18%)
Language : English
Default : Yes
Forced : No

Text
ID : 3
Format : UTF-8
Codec ID : S_TEXT/UTF8
Codec ID/Info : UTF-8 Plain Text
Duration : 2 h 9 min
Bit rate : 62 b/s
Count of elements : 1653
Stream size : 59.8 KiB (0%)
Language : English
Default : Yes
Forced : No

Menu
00:00:00.000 : en:00:00:00.000
00:03:28.667 : en:00:03:28.667
00:13:31.728 : en:00:13:31.728
00:17:57.868 : en:00:17:57.868
00:22:25.302 : en:00:22:25.302
00:33:20.415 : en:00:33:20.415
00:41:27.276 : en:00:41:27.276
00:51:37.303 : en:00:51:37.303
00:58:23.959 : en:00:58:23.959
01:07:40.348 : en:01:07:40.348
01:16:22.203 : en:01:16:22.203
01:24:43.078 : en:01:24:43.078
01:32:17.699 : en:01:32:17.699
01:37:06.612 : en:01:37:06.612
01:49:13.088 : en:01:49:13.088
01:55:03.730 : en:01:55:03.730
02:01:11.055 : en:02:01:11.055
02:06:22.241 : en:02:06:22.241






Click To View Screenshot

Click To View Screenshot

Click To View Screenshot



#showstopper -> To avoid fakes, ALWAYS check that the torrent was added on fatdemo.co.uk by showstopper

http://fatdemo.co.uk/



Download Captain America The Winter Soldier 2014 1080p BluRay x264 DTS 5.1 - MRG torrent


Comments (please add your comment)
No comments



Home - Browse Torrents - Upload Torrent - Stat - Forum - FAQ - Login
fatdemo.co.uk is in compliance with copyrights
2006-2018 fatdemo.co.uk
SitemapDenise Dal Vera | Paper doll ornaments, Christmas, Valentine’s Day, Easter gift tags, item# 20 | Prime Dent Dental Chemical Self Cure Composite Kit 15gm/15gm Bonding EXP 2021