fatdemo.co.uk - The Largest Bittorent System Login   |    Register
Latest Articles
Most searched
Hot torrents
Movie Torrents
View Torrent Info: Incredibles 2 (2018) [720p] [YTS] [YIFY]
View Torrent Info: Alpha (2018) [720p] [YTS] [YIFY]
View Torrent Info: Christopher Robin (2018) [720p] [YTS] [YIFY]
View Torrent Info: BlacKkKlansman (2018) [720p] [YTS] [YIFY]
View Torrent Info: The Witch in the Window (2018) [720p] [YTS] [YIFY]
View Torrent Info: A-X-L (2018) [720p] [YTS] [YIFY]
View Torrent Info: The Scorpion King: Book of Souls (2018) [720p] [YTS] [YIFY]
View Torrent Info: Juliet, Naked (2018) [720p] [YTS] [YIFY]
View Torrent Info: An Interview with God (2018) [720p] [YTS] [YIFY]
View Torrent Info: Adam Sandler: 100% Fresh (2018) [720p] [YTS] [YIFY]
Hot torrents
TV Torrents
View Torrent Info: Supergirl.S04E02.HDTV.x264-SVA[eztv]
View Torrent Info: Titans.2018.S01E03.WEB.x264-PHOENiX[eztv]
View Torrent Info: Blindspot.S04E03.HDTV.x264-KILLERS[eztv]
View Torrent Info: Arrow.S07E02.HDTV.x264-SVA[eztv]
View Torrent Info: DCs.Legends.of.Tomorrow.S04E01.HDTV.x264-SVA[eztv]
View Torrent Info: Hawaii.Five-0.2010.S09E05.HDTV.x264-KILLERS[eztv]
View Torrent Info: The.Flash.2014.S05E03.HDTV.x264-SVA[eztv]
View Torrent Info: The.Big.Bang.Theory.S12E06.HDTV.x264-SVA[eztv]
View Torrent Info: the.last.ship.s05e07.webrip.x264-tbs[eztv]
View Torrent Info: The.Walking.Dead.S09E03.HDTV.x264-SVA[eztv]
fatdemo.co.uk > Categories > Movies torrents > Dubbed /Dual Audio torrents


Browse Movies torrents

Captain America The Winter Soldier 2014 720p x264 Esub BluRay Dual Audio English Hindi GOPISAHI torrent



Download torrent: Download Captain America The Winter Soldier 2014 720p x264 Esub BluRay  Dual Audio English Hindi GOPISAHI torrent Magnet link Bookmark Torrent: Captain America The Winter Soldier 2014 720p x264 Esub BluRay  Dual Audio English Hindi GOPISAHI Captain America The Winter Soldier 2014 720p x264 Esub BluRay Dual Audio English Hindi GOPISAHI torrent | if not working, try instead: Magnet Link
Info hash: B29065AE20F56B4AD85A874D489FE35FABFC7424
Category: Categories > Movies torrents > Dubbed /Dual Audio torrents
Trackers:
17    View all torrent trackers >
Health:
 seeds: 12 ,  leechers: 10 |  Update >
Torrent language:  
Total Size: 650.20 MB
Torrent status: Added by trusted uploader Added by trusted uploader Trusted Uploader Site Friend Superman Sun
Uploader: Trusted Uploader Site Friend Superman Sun
Torrent added: 2018-03-19 16:09:02
 

Download Captain America The Winter Soldier 2014 720p x264 Esub BluRay  Dual Audio English Hindi GOPISAHI torrent if not working, try downloading torrent using Download Captain America The Winter Soldier 2014 720p x264 Esub BluRay  Dual Audio English Hindi GOPISAHI via Magnet Link




Torrent Description



Movie name : Captain America The Winter Soldier 2014 GOPISAHI


Video

ID : 1

Format : AVC

Codec ID : V_MPEG4/ISO/AVC

Duration : 2 h 15 min

Bit rate : 500 kb/s

Width : 1 280 pixels

Height : 536 pixels

Display aspect ratio : 2.40:1

Frame rate mode : Constant

Frame rate : 23.976 (24000/1001) FPS

Stream size : 486 MiB (75%)

Title : GOPISAHI

Writing library : x264 core 155 r2893 b00bcaf


Audio #1

Format : AAC

Duration : 2 h 15 min

Bit rate : 83.6 kb/s

Channel(s) : 6 channels

Channel positions : Front: L C R, Side: L R, LFE

Sampling rate : 44.1 kHz

Frame rate : 43.066 FPS (1024 SPF)

Compression mode : Lossy

Stream size : 81.3 MiB (12%)

Title : GOPISAHI

Language : Hindi


Audio #2

Format : AAC

Duration : 2 h 15 min

Bit rate : 82.6 kb/s

Channel(s) : 6 channels

Channel positions : Front: L C R, Side: L R, LFE

Sampling rate : 44.1 kHz

Frame rate : 43.066 FPS (1024 SPF)

Compression mode : Lossy

Stream size : 80.3 MiB (12%)

Title : GOPISAHI

Language : English


Text

Language : English





#PENDUDESI -> To avoid fakes, ALWAYS check that the torrent was added on fatdemo.co.uk by PENDUDESI

http://fatdemo.co.uk/



Download Captain America The Winter Soldier 2014 720p x264 Esub BluRay  Dual Audio English Hindi GOPISAHI torrent


Comments (please add your comment)
No comments



Home - Browse Torrents - Upload Torrent - Stat - Forum - FAQ - Login
fatdemo.co.uk is in compliance with copyrights
2006-2018 fatdemo.co.uk
SitemapDamy i Wieśniaczki. Rosja - s02e15 | Yukihiro Takahashi 1996 Portrait With No Name {TOCT-9695} | Newborn Baby Doll Gift Toy Soft Vinyl Silicone Lifelike Xmas KidsToddler Girl UK