fatdemo.co.uk - The Largest Bittorent System Login   |    Register
Latest Articles
Most searched
Hot torrents
Movie Torrents
View Torrent Info: Smallfoot (2018) [720p] [YTS] [YIFY]
View Torrent Info: The Bouncer (2018) [720p] [YTS] [YIFY]
View Torrent Info: Blood Brother (2018) [720p] [YTS] [YIFY]
View Torrent Info: The Immortal Wars (2018) [720p] [YTS] [YIFY]
View Torrent Info: Down River (2018) [720p] [YTS] [YIFY]
View Torrent Info: Born Racer (2018) [720p] [YTS] [YIFY]
View Torrent Info: Swiped (2018) [720p] [YTS] [YIFY]
View Torrent Info: The Hitman Agency (2018) [720p] [YTS] [YIFY]
View Torrent Info: Time Jumpers (2018) [720p] [YTS] [YIFY]
View Torrent Info: Elliot the Littlest Reindeer (2018) [720p] [YTS] [YIFY]
Hot torrents
TV Torrents
View Torrent Info: The.Flash.2014.S05E08.HDTV.x264-KILLERS[eztv]
View Torrent Info: Arrow.S07E08.HDTV.x264-SVA[eztv]
View Torrent Info: Supergirl.S04E08.HDTV.x264-SVA[eztv]
View Torrent Info: DCs.Legends.of.Tomorrow.S04E07.HDTV.x264-SVA[eztv]
View Torrent Info: The.Good.Doctor.S02E10.HDTV.x264-SVA[eztv]
View Torrent Info: Supernatural.S14E07.HDTV.x264-SVA[eztv]
View Torrent Info: the.gifted.s02e09.web.x264-tbs[eztv]
View Torrent Info: lethal.weapon.s03e09.web.x264-tbs[eztv]
View Torrent Info: Legacies.S01E05.HDTV.x264-SVA[eztv]
View Torrent Info: The.Rookie.S01E07.HDTV.x264-KILLERS[eztv]
fatdemo.co.uk > Categories > Movies torrents > HEVC/x265 torrents


Browse Movies torrents

Captain America The Winter Soldier (2014) (1080p BluRay x265 HEVC 10bit AAC 7.1 Q22 Joy) [UTR] torrent



Download torrent: Download Captain America The Winter Soldier (2014) (1080p BluRay x265 HEVC 10bit AAC 7.1 Q22 Joy) [UTR] torrent Magnet link Bookmark Torrent: Captain America The Winter Soldier (2014) (1080p BluRay x265 HEVC 10bit AAC 7.1 Q22 Joy) [UTR] Captain America The Winter Soldier (2014) (1080p BluRay x265 HEVC 10bit AAC 7.1 Q22 Joy) [UTR] torrent | if not working, try instead: Magnet Link
Info hash: 1872F7EF3EFCDB5CD07967126A92D2F65E803A57
Category: Categories > Movies torrents > HEVC/x265 torrents
Trackers:
11    View all torrent trackers >
Health:
 seeds: 0 ,  leechers: 0 |  Update >
Torrent language:  
Total Size: 2.40 GB
Torrent status: Added by trusted uploader Added by trusted uploader Trusted Uploader Site Friend Superman Sun
Uploader: Trusted Uploader Site Friend Superman Sun
Torrent added: 2018-09-18 07:49:09
 

Download Captain America The Winter Soldier (2014) (1080p BluRay x265 HEVC 10bit AAC 7.1 Q22 Joy) [UTR] torrent if not working, try downloading torrent using Download Captain America The Winter Soldier (2014) (1080p BluRay x265 HEVC 10bit AAC 7.1 Q22 Joy) [UTR] via Magnet Link




Torrent Description








Media Information

Media Information

Code:

General
Format : Matroska
Format version : Version 4 / Version 2
File size : 2.42 GiB
Duration : 2 h 15 min
Overall bit rate : 2 551 kb/s
Movie name : Captain America The Winter Soldier 2014 (1080p x265 q22 FS99 Joy)[UTR]
Encoded date : UTC 2018-09-17 07:51:25
Writing application : mkvmerge v25.0.0 ('Prog Noir') 64-bit
Writing library : libebml v1.3.6 + libmatroska v1.4.9
Cover : Yes
Attachments : cover.jpg
Writing frontend : StaxRip v1.8.2.0

Video
ID : 1
Format : HEVC
Format/Info : High Efficiency Video Coding
Format profile : Main [email protected]@Main
Codec ID : V_MPEGH/ISO/HEVC
Duration : 2 h 15 min
Bit rate : 2 113 kb/s
Width : 1 920 pixels
Height : 800 pixels
Display aspect ratio : 2.40:1
Frame rate mode : Constant
Frame rate : 23.976 (24000/1001) FPS
Color space : YUV
Chroma subsampling : 4:2:0
Bit depth : 10 bits
Bits/(Pixel*Frame) : 0.057
Stream size : 2.01 GiB (83%)
Writing library : x265 2.8+19-bcdc610cf5f0:[Windows][MSVC 1914][64 bit] 10bit
Encoding settings : cpuid=1111039 / frame-threads=4 / numa-pools=16 / wpp / no-pmode / no-pme / no-psnr / ssim / log-level=2 / input-csp=1 / input-res=1920x800 / interlace=0 / total-frames=195505 / level-idc=0 / high-tier=1 / uhd-bd=0 / ref=4 / no-allow-non-conformance / no-repeat-headers / annexb / no-aud / no-hrd / info / hash=0 / no-temporal-layers / open-gop / min-keyint=23 / keyint=250 / gop-lookahead=0 / bframes=4 / b-adapt=2 / b-pyramid / bframe-bias=0 / rc-lookahead=25 / lookahead-slices=4 / scenecut=40 / radl=0 / no-intra-refresh / ctu=64 / min-cu-size=8 / rect / no-amp / max-tu-size=32 / tu-inter-depth=1 / tu-intra-depth=1 / limit-tu=0 / rdoq-level=2 / dynamic-rd=0.00 / ssim-rd / signhide / no-tskip / nr-intra=0 / nr-inter=0 / no-constrained-intra / strong-intra-smoothing / max-merge=3 / limit-refs=3 / limit-modes / me=3 / subme=3 / merange=57 / temporal-mvp / weightp / no-weightb / no-analyze-src-pics / deblock=-2:-2 / sao / sao-non-deblock / rd=4 / early-skip / rskip / no-fast-intra / no-tskip-fast / no-cu-lossless / no-b-intra / no-splitrd-skip / rdpenalty=0 / psy-rd=0.00 / psy-rdoq=1.00 / no-rd-refine / no-lossless / cbqpoffs=0 / crqpoffs=0 / rc=crf / crf=21.5 / qcomp=0.60 / qpstep=4 / stats-write=0 / stats-read=0 / ipratio=1.40 / pbratio=1.30 / aq-mode=3 / aq-strength=1.00 / cutree / zone-count=0 / no-strict-cbr / qg-size=32 / no-rc-grain / qpmax=69 / qpmin=0 / no-const-vbv / sar=0 / overscan=0 / videoformat=5 / range=0 / colorprim=2 / transfer=2 / colormatrix=2 / chromaloc=0 / display-window=0 / max-cll=0,0 / min-luma=0 / max-luma=1023 / log2-max-poc-lsb=8 / vui-timing-info / vui-hrd-info / slices=1 / no-opt-qp-pps / no-opt-ref-list-length-pps / no-multi-pass-opt-rps / scenecut-bias=0.05 / no-opt-cu-delta-qp / no-aq-motion / no-hdr / no-hdr-opt / no-dhdr10-opt / no-idr-recovery-sei / analysis-reuse-level=5 / scale-factor=0 / refine-intra=0 / refine-inter=0 / refine-mv=0 / no-limit-sao / ctu-info=0 / no-lowpass-dct / refine-mv-type=0 / copy-pic=1 / max-ausize-factor=1.0 / no-dynamic-refine / no-single-sei
Default : Yes
Forced : No

Audio
ID : 2
Format : AAC
Format/Info : Advanced Audio Codec
Format profile : LC
Codec ID : A_AAC
Duration : 2 h 15 min
Bit rate : 424 kb/s
Channel(s) : 7 channels
Channel(s)_Original : 8 channels
Channel positions : Front: L C R, Side: L R, Back: L R, LFE
Sampling rate : 48.0 kHz
Frame rate : 46.875 FPS (1024 spf)
Compression mode : Lossy
Delay relative to video : 9 ms
Stream size : 412 MiB (17%)
Language : English
Default : No
Forced : No

Subtitle #1
ID : 3
Format : PGS
Muxing mode : zlib
Codec ID : S_HDMV/PGS
Codec ID/Info : Picture based subtitle format used on BDs/HD-DVDs
Duration : 2 h 8 min
Bit rate : 34.4 kb/s
Count of elements : 3300
Stream size : 31.7 MiB (1%)
Language : English
Default : No
Forced : No

Subtitle #2
ID : 4
Format : UTF-8
Codec ID : S_TEXT/UTF8
Codec ID/Info : UTF-8 Plain Text
Duration : 2 h 15 min
Bit rate : 75 b/s
Count of elements : 1165
Stream size : 75.0 KiB (0%)
Language : Arabic
Default : No
Forced : No

Subtitle #3
ID : 5
Format : UTF-8
Codec ID : S_TEXT/UTF8
Codec ID/Info : UTF-8 Plain Text
Duration : 2 h 9 min
Bit rate : 49 b/s
Count of elements : 1385
Stream size : 46.7 KiB (0%)
Language : Portuguese
Default : No
Forced : No

Subtitle #4
ID : 6
Format : ASS
Codec ID : S_TEXT/ASS
Codec ID/Info : Advanced Sub Station Alpha
Duration : 2 h 9 min
Bit rate : 247 b/s
Count of elements : 1664
Compression mode : Lossless
Stream size : 235 KiB (0%)
Language : Chinese
Default : No
Forced : No

Subtitle #5
ID : 7
Format : UTF-8
Codec ID : S_TEXT/UTF8
Codec ID/Info : UTF-8 Plain Text
Duration : 2 h 8 min
Bit rate : 48 b/s
Count of elements : 1021
Stream size : 45.4 KiB (0%)
Language : Czech
Default : No
Forced : No

Subtitle #6
ID : 8
Format : UTF-8
Codec ID : S_TEXT/UTF8
Codec ID/Info : UTF-8 Plain Text
Duration : 2 h 14 min
Bit rate : 46 b/s
Count of elements : 1319
Stream size : 45.6 KiB (0%)
Language : Danish
Default : No
Forced : No

Subtitle #7
ID : 9
Format : UTF-8
Codec ID : S_TEXT/UTF8
Codec ID/Info : UTF-8 Plain Text
Duration : 2 h 9 min
Bit rate : 50 b/s
Count of elements : 1177
Stream size : 47.5 KiB (0%)
Language : Dutch
Default : No
Forced : No

Subtitle #8
ID : 10
Format : UTF-8
Codec ID : S_TEXT/UTF8
Codec ID/Info : UTF-8 Plain Text
Duration : 2 h 15 min
Bit rate : 76 b/s
Count of elements : 1508
Stream size : 75.5 KiB (0%)
Language : Persian
Default : No
Forced : No

Subtitle #9
ID : 11
Format : UTF-8
Codec ID : S_TEXT/UTF8
Codec ID/Info : UTF-8 Plain Text
Duration : 2 h 14 min
Bit rate : 41 b/s
Count of elements : 1521
Stream size : 40.9 KiB (0%)
Language : Finnish
Default : No
Forced : No

Subtitle #10
ID : 12
Format : UTF-8
Codec ID : S_TEXT/UTF8
Codec ID/Info : UTF-8 Plain Text
Duration : 2 h 14 min
Bit rate : 40 b/s
Count of elements : 1467
Stream size : 39.6 KiB (0%)
Language : French
Default : No
Forced : No

Subtitle #11
ID : 13
Format : UTF-8
Codec ID : S_TEXT/UTF8
Codec ID/Info : UTF-8 Plain Text
Duration : 2 h 8 min
Bit rate : 41 b/s
Count of elements : 1450
Stream size : 38.9 KiB (0%)
Language : German
Default : No
Forced : No

Subtitle #12
ID : 14
Format : UTF-8
Codec ID : S_TEXT/UTF8
Codec ID/Info : UTF-8 Plain Text
Duration : 2 h 9 min
Bit rate : 97 b/s
Count of elements : 1432
Stream size : 91.9 KiB (0%)
Language : Greek
Default : No
Forced : No

Subtitle #13
ID : 15
Format : UTF-8
Codec ID : S_TEXT/UTF8
Codec ID/Info : UTF-8 Plain Text
Duration : 2 h 14 min
Bit rate : 66 b/s
Count of elements : 1544
Stream size : 66.1 KiB (0%)
Language : Hebrew
Default : No
Forced : No

Subtitle #14
ID : 16
Format : UTF-8
Codec ID : S_TEXT/UTF8
Codec ID/Info : UTF-8 Plain Text
Duration : 2 h 11 min
Bit rate : 51 b/s
Count of elements : 1474
Stream size : 49.8 KiB (0%)
Language : Indonesian
Default : No
Forced : No

Subtitle #15
ID : 17
Format : UTF-8
Codec ID : S_TEXT/UTF8
Codec ID/Info : UTF-8 Plain Text
Duration : 2 h 8 min
Bit rate : 62 b/s
Count of elements : 1650
Stream size : 58.6 KiB (0%)
Language : Japanese
Default : No
Forced : No

Subtitle #16
ID : 18
Format : UTF-8
Codec ID : S_TEXT/UTF8
Codec ID/Info : UTF-8 Plain Text
Duration : 2 h 14 min
Bit rate : 48 b/s
Count of elements : 1536
Stream size : 47.8 KiB (0%)
Language : Norwegian
Default : No
Forced : No

Subtitle #17
ID : 19
Format : UTF-8
Codec ID : S_TEXT/UTF8
Codec ID/Info : UTF-8 Plain Text
Duration : 2 h 8 min
Bit rate : 57 b/s
Count of elements : 1415
Stream size : 54.5 KiB (0%)
Language : Romanian
Default : No
Forced : No

Subtitle #18
ID : 20
Format : UTF-8
Codec ID : S_TEXT/UTF8
Codec ID/Info : UTF-8 Plain Text
Duration : 2 h 14 min
Bit rate : 82 b/s
Count of elements : 1361
Stream size : 81.6 KiB (0%)
Language : Russian
Default : No
Forced : No

Subtitle #19
ID : 21
Format : UTF-8
Codec ID : S_TEXT/UTF8
Codec ID/Info : UTF-8 Plain Text
Duration : 2 h 14 min
Bit rate : 50 b/s
Count of elements : 1400
Stream size : 50.2 KiB (0%)
Language : Spanish
Default : No
Forced : No

Subtitle #20
ID : 22
Format : UTF-8
Codec ID : S_TEXT/UTF8
Codec ID/Info : UTF-8 Plain Text
Duration : 2 h 14 min
Bit rate : 40 b/s
Count of elements : 975
Stream size : 40.5 KiB (0%)
Language : Swedish
Default : No
Forced : No

Subtitle #21
ID : 23
Format : UTF-8
Codec ID : S_TEXT/UTF8
Codec ID/Info : UTF-8 Plain Text
Duration : 2 h 15 min
Bit rate : 100 b/s
Count of elements : 1550
Stream size : 99.3 KiB (0%)
Language : Thai
Default : No
Forced : No

Subtitle #22
ID : 24
Format : UTF-8
Codec ID : S_TEXT/UTF8
Codec ID/Info : UTF-8 Plain Text
Duration : 2 h 9 min
Bit rate : 61 b/s
Count of elements : 1490
Stream size : 58.4 KiB (0%)
Language : Vietnamese
Default : No
Forced : No

Menu
00:00:00.000 : en:Chapter 01
00:03:28.666 : en:Chapter 02
00:13:31.727 : en:Chapter 03
00:17:57.868 : en:Chapter 04
00:22:25.302 : en:Chapter 05
00:33:20.415 : en:Chapter 06
00:41:27.276 : en:Chapter 07
00:51:37.302 : en:Chapter 08
00:58:23.958 : en:Chapter 09
01:07:40.347 : en:Chapter 10
01:16:22.202 : en:Chapter 11
01:24:43.078 : en:Chapter 12
01:32:17.698 : en:Chapter 13
01:37:06.612 : en:Chapter 14
01:49:13.088 : en:Chapter 15
01:55:03.730 : en:Chapter 16
02:01:11.055 : en:Chapter 17
02:06:22.241 : en:Chapter 18



Source Information

Code:

Release:
Captain.America.The.Winter.Soldier.2014.1080p.BluRay.REMUX.DTS-HD.AVC-NA (31.6 GB)






Note From UTR
We have no issue with individuals posting or re-uploading our torrents on a platform we aren't on. However, if this is something you'd like to do, please do so in a 'as-is' format. We ask that you do not create a new torrent, include all descriptions you see above including the UTR logo, tags, notes and screenshots. If you'd like to become a permanent poster on a website we don't post to, feel free to get in contact with a UniTeam member.



#UTRCorp -> To avoid fakes, ALWAYS check that the torrent was added on fatdemo.co.uk by UTRCorp

http://fatdemo.co.uk/



Download Captain America The Winter Soldier (2014) (1080p BluRay x265 HEVC 10bit AAC 7.1 Q22 Joy) [UTR] torrent


Comments (please add your comment)
No comments



Home - Browse Torrents - Upload Torrent - Stat - Forum - FAQ - Login
fatdemo.co.uk is in compliance with copyrights
2006-2018 fatdemo.co.uk
Sitemap14 - 3 Episódio 3 | Thám Tử Lừng Danh Conan chap 808 | 7.8