fatdemo.co.uk - The Largest Bittorent System Login   |    Register
Latest Articles
Most searched
Hot torrents
Movie Torrents
View Torrent Info: Johnny English Strikes Again (2018) [720p] [YTS] [YIFY]
View Torrent Info: Bad Times at the El Royale (2018) [720p] [YTS] [YIFY]
View Torrent Info: Halloween (2018) [720p] [YTS] [YIFY]
View Torrent Info: The Sisters Brothers (2018) [720p] [YTS] [YIFY]
View Torrent Info: Bird Box (2018) [720p] [YTS] [YIFY]
View Torrent Info: The Guilty (2018) [720p] [YTS] [YIFY]
View Torrent Info: The Dark Kingdom (2019) [720p] [YTS] [YIFY]
View Torrent Info: Sgt. Stubby: An American Hero (2018) [720p] [YTS] [YIFY]
View Torrent Info: Two Tails (2018) [720p] [YTS] [YIFY]
View Torrent Info: Mid90s (2018) [720p] [YTS] [YIFY]
Hot torrents
TV Torrents
View Torrent Info: Titans.2018.S01E11.WEBRip.x264-eSc[eztv]
View Torrent Info: Vikings.S05E14.HDTV.x264-KILLERS[eztv]
View Torrent Info: NCIS.Los.Angeles.S10E11.HDTV.x264-KILLERS[eztv]
View Torrent Info: Marvels.Runaways.S02E01.WEB.h264-TBS[eztv]
View Torrent Info: Gold.Rush.S09E11.WEBRip.x264-TBS[eztv]
View Torrent Info: Midnight.Texas.S02E08.WEB.H264-MEMENTO[eztv]
View Torrent Info: Van.Helsing.S03E12.WEB.x264-TBS[eztv]
View Torrent Info: Ray.Donovan.S06E08.WEBRip.x264-ION10[eztv]
View Torrent Info: Titans.2018.S01E11.WEB.XviD-AVID[eztv]
View Torrent Info: Saturday.Night.Live.S44E09.Matt.Damon.480p.x264-mSD[eztv]
fatdemo.co.uk > Categories > Movies torrents > HD torrents


Browse Movies torrents

Ascharya Fuck It 2018 Hindi 1080p.WEB-DL.DD 5.1 X264.LLG torrent



Download torrent: Download Ascharya Fuck It 2018 Hindi 1080p.WEB-DL.DD 5.1 X264.LLG torrent Magnet link Bookmark Torrent: Ascharya Fuck It 2018 Hindi 1080p.WEB-DL.DD 5.1 X264.LLG Ascharya Fuck It 2018 Hindi 1080p.WEB-DL.DD 5.1 X264.LLG torrent | if not working, try instead: Magnet Link
Info hash: 3BFBCB69494B683AEA154BB54AE5B602DF07C4E0
Category: Categories > Movies torrents > HD torrents
Trackers:
6    View all torrent trackers >
Health:
 seeds: 2 ,  leechers: 9 |  Update >
Total Size: 1.50 GB
Torrent status: Added by trusted uploader Added by trusted uploader Trusted Uploader Site Friend Superman Sun
Uploader: Trusted Uploader Site Friend Superman Sun
Torrent added: 2018-12-22 08:16:50
 

Download Ascharya Fuck It 2018 Hindi 1080p.WEB-DL.DD 5.1 X264.LLG torrent if not working, try downloading torrent using Download Ascharya Fuck It 2018 Hindi 1080p.WEB-DL.DD 5.1 X264.LLG via Magnet Link




Torrent Description

Quote:




******************************Thumbnail:**********************



******************************Screenshots:********************

Screenshot 1

Screenshot 2

Screenshot 3

Screenshot 4

Screenshot 5

Screenshot 6

Screenshot 7

Screenshot 8

Screenshot 9

Screenshot 0

******************************************************

18+.Ascharya Fuck It 2018 Hindi 1080p.WEB-DL.DD 5.1 X264.LLG.mp4
Format : MPEG-4
Format profile : Base Media
Codec ID : isom (isom/iso2/avc1/mp41)
File size : 1.50 GiB
Duration : 1 h 30 min
Overall bit rate mode : Variable
Overall bit rate : 2 387 kb/s


Video
ID : 1
Format : AVC
Format/Info : Advanced Video Codec
Format profile : [email protected]
Format settings : CABAC / 1 Ref Frames
Format settings, CABAC : Yes
Format settings, RefFrames : 1 frame
Codec ID : avc1
Codec ID/Info : Advanced Video Coding
Duration : 1 h 30 min
Bit rate mode : Variable
Bit rate : 1 999 kb/s
Maximum bit rate : 6 000 kb/s
Width : 1 920 pixels
Height : 820 pixels
Display aspect ratio : 2.35:1
Frame rate mode : Constant
Frame rate : 24.000 FPS
Color space : YUV
Chroma subsampling : 4:2:0
Bit depth : 8 bits
Scan type : Progressive
Bits/(Pixel*Frame) : 0.053
Stream size : 1.26 GiB (84%)

Audio
ID : 2
Format : AC-3
Format/Info : Audio Coding 3
Commercial name : Dolby Digital
Codec ID : ac-3
Duration : 1 h 30 min
Bit rate mode : Constant
Bit rate : 384 kb/s
Channel(s) : 6 channels
Channel layout : L R C LFE Ls Rs
Sampling rate : 48.0 kHz
Frame rate : 31.250 FPS (1536 SPF)
Bit depth : 16 bits
Compression mode : Lossy
Stream size : 248 MiB (16%)
Language : Hindi
Service kind : Complete Main
Default : Yes
Alternate group : 1



********************************************************




#LifeLongg -> To avoid fakes, ALWAYS check that the torrent was added on fatdemo.co.uk by LifeLongg

http://fatdemo.co.uk/



Download Ascharya Fuck It 2018 Hindi 1080p.WEB-DL.DD 5.1 X264.LLG torrent


Comments (please add your comment)
No comments



Home - Browse Torrents - Upload Torrent - Stat - Forum - FAQ - Login
fatdemo.co.uk is in compliance with copyrights
2006-2018 fatdemo.co.uk
SitemapPower Protection, Distribution | Is Tv Good or Bad | 1 2 3 Em Yêu Anh (123我爱你)