fatdemo.co.uk - The Largest Bittorent System Login   |    Register
Latest Articles
Most searched
Hot torrents
Movie Torrents
View Torrent Info: Johnny English Strikes Again (2018) [720p] [YTS] [YIFY]
View Torrent Info: Bad Times at the El Royale (2018) [720p] [YTS] [YIFY]
View Torrent Info: Halloween (2018) [720p] [YTS] [YIFY]
View Torrent Info: The Sisters Brothers (2018) [720p] [YTS] [YIFY]
View Torrent Info: Sgt. Stubby: An American Hero (2018) [720p] [YTS] [YIFY]
View Torrent Info: Two Tails (2018) [720p] [YTS] [YIFY]
View Torrent Info: The Dark Kingdom (2019) [720p] [YTS] [YIFY]
View Torrent Info: Bad Times at the El Royale (2018) [720p] [YTS] [YIFY]
View Torrent Info: Hell Fest (2018) [720p] [YTS] [YIFY]
View Torrent Info: Mid90s (2018) [720p] [YTS] [YIFY]
Hot torrents
TV Torrents
View Torrent Info: Vikings.S05E14.HDTV.x264-KILLERS[eztv]
View Torrent Info: Madam.Secretary.S05E10.HDTV.x264-KILLERS[eztv]
View Torrent Info: Titans.2018.S01E11.WEBRip.x264-eSc[eztv]
View Torrent Info: Outlander.S04E08.WEB.H264-MEMENTO[eztv]
View Torrent Info: Counterpart.S02E03.WEB.H264-MEMENTO[eztv]
View Torrent Info: Ray.Donovan.S06E09.WEB.x264-PHOENiX[eztv]
View Torrent Info: Berlin.Station.S03E04.WEB.h264-TBS[eztv]
View Torrent Info: Marvels.Runaways.S02E01.WEB.h264-TBS[eztv]
View Torrent Info: Gold.Rush.S09E11.WEBRip.x264-TBS[eztv]
View Torrent Info: King.Gary.S01E01.HDTV.x264-MTB[eztv]
fatdemo.co.uk > Categories > Movies torrents > Bollywood/Desi torrents


Browse Movies torrents

M.S. Dhoni - The Untold Story (2016) Hindi 1080p 10bit Bluray x265 HEVC AC3 DD 5.1 ESub ~ TombDoc torrent



Download torrent: Download M.S. Dhoni - The Untold Story (2016) Hindi 1080p 10bit Bluray x265 HEVC AC3 DD 5.1 ESub ~ TombDoc torrent Magnet link Bookmark Torrent: M.S. Dhoni - The Untold Story (2016) Hindi 1080p 10bit Bluray x265 HEVC AC3 DD 5.1 ESub ~ TombDoc M.S. Dhoni - The Untold Story (2016) Hindi 1080p 10bit Bluray x265 HEVC AC3 DD 5.1 ESub ~ TombDoc torrent | if not working, try instead: Magnet Link
Info hash: 42CC06B678927E2350F57493050F39A1CF8FC88B
Category: Categories > Movies torrents > Bollywood/Desi torrents
Trackers:
20    View all torrent trackers >
Health:
 seeds: 10 ,  leechers: 3 |  Update >
Total Size: 4.60 GB
Torrent status: Added by trusted uploader Added by trusted uploader Trusted Uploader Site Friend Superman Sun
Uploader: Trusted Uploader Site Friend Superman Sun
Torrent added: 2018-12-24 13:02:34
 

Download M.S. Dhoni - The Untold Story (2016) Hindi 1080p 10bit Bluray x265 HEVC AC3 DD 5.1 ESub ~ TombDoc torrent if not working, try downloading torrent using Download M.S. Dhoni - The Untold Story (2016) Hindi 1080p 10bit Bluray x265 HEVC AC3 DD 5.1 ESub ~ TombDoc via Magnet Link




Torrent Description



The man you know... The journey you don't....




M.S. Dhoni: The Untold Story (2016) Hindi 1080p 10bit Bluray x265 HEVC AC3 DD 5.1 ESub ~ TombDoc


Code:

Format : Matroska
Format version : Version 4
File size : 4.53 GiB
Duration : 3 h 4 min
Overall bit rate : 3 513 kb/s :
Writing frontend : TombDoc

Video
ID : 1
Format : HEVC
Format/Info : High Efficiency Video Coding
Format profile : Main [email protected]@Main
Codec ID : V_MPEGH/ISO/HEVC
Duration : 3 h 4 min
Bit rate : 3 047 kb/s
Width : 1 920 pixels
Height : 804 pixels
Display aspect ratio : 2.40:1
Frame rate mode : Constant
Frame rate : 24.000 FPS
Color space : YUV
Chroma subsampling : 4:2:0
Bit depth : 10 bits
Bits/(Pixel*Frame) : 0.082
Stream size : 3.93 GiB (87%)
Writing library : x265 2.9+2-7e978ed93d60:[Windows][GCC 8.2.0][64 bit] 10bit
Encoding settings : cpuid=1049583 / frame-threads=3 / numa-pools=8 / wpp / no-pmode / no-pme / no-psnr / no-ssim / log-level=2 / input-csp=1 / input-res=1920x804 / interlace=0 / total-frames=265933 / level-idc=0 / high-tier=1 / uhd-bd=0 / ref=4 / no-allow-non-conformance / no-repeat-headers / annexb / no-aud / no-hrd / info / hash=0 / no-temporal-layers / open-gop / min-keyint=23 / keyint=250 / gop-lookahead=0 / bframes=8 / b-adapt=2 / b-pyramid / bframe-bias=0 / rc-lookahead=40 / lookahead-slices=4 / scenecut=40 / radl=0 / no-intra-refresh / ctu=64 / min-cu-size=8 / rect / no-amp / max-tu-size=32 / tu-inter-depth=1 / tu-intra-depth=1 / limit-tu=0 / rdoq-level=2 / dynamic-rd=0.00 / no-ssim-rd / signhide / no-tskip / nr-intra=0 / nr-inter=0 / no-constrained-intra / strong-intra-smoothing / max-merge=3 / limit-refs=3 / limit-modes / me=3 / subme=3 / merange=57 / temporal-mvp / weightp / no-weightb / no-analyze-src-pics / deblock=0:0 / sao / no-sao-non-deblock / rd=4 / no-early-skip / rskip / no-fast-intra / no-tskip-fast / no-cu-lossless / no-b-intra / no-splitrd-skip / rdpenalty=0 / psy-rd=2.00 / psy-rdoq=0.00 / no-rd-refine / no-lossless / cbqpoffs=0 / crqpoffs=0 / rc=abr / bitrate=3050 / qcomp=0.60 / qpstep=4 / stats-write=0 / stats-read=2 / cplxblur=20.0 / qblur=0.5 / ipratio=1.40 / pbratio=1.30 / aq-mode=3 / aq-strength=1.00 / cutree / zone-count=0 / no-strict-cbr / qg-size=32 / no-rc-grain / qpmax=69 / qpmin=0 / no-const-vbv / sar=0 / overscan=0 / videoformat=5 / range=0 / colorprim=2 / transfer=2 / colormatrix=2 / chromaloc=0 / display-window=0 / max-cll=0,0 / min-luma=0 / max-luma=1023 / log2-max-poc-lsb=8 / vui-timing-info / vui-hrd-info / slices=1 / no-opt-qp-pps / no-opt-ref-list-length-pps / no-multi-pass-opt-rps / scenecut-bias=0.05 / no-opt-cu-delta-qp / aq-motion / no-hdr / no-hdr-opt / no-dhdr10-opt / no-idr-recovery-sei / analysis-reuse-level=5 / scale-factor=0 / refine-intra=0 / refine-inter=0 / refine-mv=0 / no-limit-sao / ctu-info=0 / no-lowpass-dct / refine-mv-type=0 / copy-pic=1 / max-ausize-factor=1.0 / no-dynamic-refine / no-single-sei
Default : Yes
Forced : No

Audio
ID : 2
Format : AC-3
Format/Info : Audio Coding 3
Commercial name : Dolby Digital
Codec ID : A_AC3
Duration : 3 h 4 min
Bit rate mode : Constant
Bit rate : 448 kb/s
Channel(s) : 6 channels
Channel layout : L R C LFE Ls Rs
Sampling rate : 48.0 kHz
Frame rate : 31.250 FPS (1536 SPF)
Bit depth : 16 bits
Compression mode : Lossy
Stream size : 592 MiB (13%)
Title : Hindi DD 5.1 448Kbps ~ TombDoc
Language : Hindi
Service kind : Complete Main
Default : Yes
Forced : Yes

Text
ID : 3
Format : PGS
Muxing mode : zlib
Codec ID : S_HDMV/PGS
Codec ID/Info : Picture based subtitle format used on BDs/HD-DVDs
Duration : 2 h 56 min
Bit rate : 28.7 kb/s
Count of elements : 4386
Stream size : 36.2 MiB (1%)
Title : Eng BD-PGS
Language : English
Default : Yes
Forced : Yes

Menu
00:00:00.000 : en:Chapter 01
00:00:04.000 : en:Chapter 02
00:05:56.500 : en:Chapter 03
00:16:20.000 : en:Chapter 04
00:28:22.208 : en:Chapter 05
00:39:29.000 : en:Chapter 06
00:49:23.000 : en:Chapter 07
00:59:46.041 : en:Chapter 08
01:08:13.041 : en:Chapter 09
01:17:55.416 : en:Chapter 10
01:26:47.083 : en:Chapter 11
01:30:28.291 : en:Chapter 12
01:40:41.000 : en:Chapter 13
01:49:23.541 : en:Chapter 14
01:59:24.166 : en:Chapter 15
02:02:38.416 : en:Chapter 16
02:10:03.416 : en:Chapter 17
02:27:14.416 : en:Chapter 18
02:35:54.000 : en:Chapter 19
02:43:22.166 : en:Chapter 20
02:46:46.000 : en:Chapter 21
02:49:26.166 : en:Chapter 22
03:00:06.208 : en:Chapter 23



Code:

Source: M.S.Dhoni.The.Untold.Story.2016.Untouched.BD50.(REMUX).DTS-HDMA 5.1 - Hon3yHD.mkv





#McuDudeS -> To avoid fakes, ALWAYS check that the torrent was added on fatdemo.co.uk by McuDudeS

http://fatdemo.co.uk/



Download M.S. Dhoni - The Untold Story (2016) Hindi 1080p 10bit Bluray x265 HEVC AC3 DD 5.1 ESub ~ TombDoc torrent


Comments (please add your comment)
No comments



Home - Browse Torrents - Upload Torrent - Stat - Forum - FAQ - Login
fatdemo.co.uk is in compliance with copyrights
2006-2018 fatdemo.co.uk
SitemapDescargar | office 2019 professi | Coaching (Books)