fatdemo.co.uk - The Largest Bittorent System Login   |    Register
Latest Articles
Most searched
Hot torrents
Movie Torrents
View Torrent Info: Wheely (2018) [720p] [YTS] [YIFY]
View Torrent Info: Golden Job (2018) [720p] [YTS] [YIFY]
View Torrent Info: The Oath (2018) [720p] [YTS] [YIFY]
View Torrent Info: The Christmas Contract (2018) [720p] [YTS] [YIFY]
View Torrent Info: The Dragon Unleashed (2019) [720p] [YTS] [YIFY]
View Torrent Info: May the Devil Take You (2018) [720p] [YTS] [YIFY]
View Torrent Info: Yardie (2018) [720p] [YTS] [YIFY]
View Torrent Info: The Secrets of Gravity: In the Footsteps of Albert Einstein (2016) [720p] [YTS] [YIFY]
View Torrent Info: The Holiday Calendar (2018) [720p] [YTS] [YIFY]
View Torrent Info: The Pact (2018) [720p] [YTS] [YIFY]
Hot torrents
TV Torrents
View Torrent Info: Vikings.S05E15.HDTV.x264-BATV[eztv]
View Torrent Info: Madam.Secretary.S05E10.HDTV.x264-KILLERS[eztv]
View Torrent Info: Outlander.S04E08.WEB.H264-MEMENTO[eztv]
View Torrent Info: Vikings.S05E15.iNTERNAL.480p.x264-mSD[eztv]
View Torrent Info: the.abc.murders.s01e02.hdtv.x264-mtb[eztv]
View Torrent Info: the.abc.murders.s01e01.hdtv.x264-mtb[eztv]
View Torrent Info: Ray.Donovan.S06E09.WEB.x264-PHOENiX[eztv]
View Torrent Info: Counterpart.S02E03.WEB.H264-MEMENTO[eztv]
View Torrent Info: The.ABC.Murders.S01E03.HDTV.x264-KETTLE[eztv]
View Torrent Info: Ancient.Invisible.Cities.S01E01.480p.x264-mSD[eztv]
fatdemo.co.uk > Categories > Movies torrents > Bollywood/Desi torrents


Browse Movies torrents

Fever 2016 Hindi 1080p WEB-DL x264 AAC { TaRa }.mkv torrent



Download torrent: Download Fever 2016 Hindi 1080p WEB-DL x264 AAC { TaRa }.mkv torrent Magnet link Bookmark Torrent: Fever 2016 Hindi 1080p WEB-DL x264 AAC { TaRa }.mkv Fever 2016 Hindi 1080p WEB-DL x264 AAC { TaRa }.mkv torrent | if not working, try instead: Magnet Link
Info hash: 3A3C5549DF00BE22044B4861F7C70D359E9F5509
Category: Categories > Movies torrents > Bollywood/Desi torrents
Trackers:
14    View all torrent trackers >
Health:
 seeds: 2 ,  leechers: 3 |  Update >
Total Size: 1.00 MB
Torrent status: Added by trusted uploader Added by trusted uploader Trusted Uploader Site Friend Superman Sun
Uploader: Trusted Uploader Site Friend Superman Sun
Torrent added: 2018-12-29 08:32:43
 

Download Fever 2016 Hindi 1080p WEB-DL x264 AAC { TaRa }.mkv torrent if not working, try downloading torrent using Download Fever 2016 Hindi 1080p WEB-DL x264 AAC { TaRa }.mkv via Magnet Link




Torrent Description


Fever 2016 Hindi 1080p WEB-DL x264 AAC { TaRa }.mkv


===================================================================
General
Complete name : Fever 2016 Hindi 1080p WEB-DL x264 AAC { TaRa }.mkv
Format : Matroska
Format version : Version 4
File size : 1 002 MiB
Duration : 2 h 5 min
Overall bit rate : 1 115 kb/s
===================================================================
Video
ID : 1
Format : AVC
Format/Info : Advanced Video Codec
Format profile : [email protected]
Format settings : CABAC / 4 Ref Frames
Format settings, CABAC : Yes
Format settings, ReFrames : 4 frames
Codec ID : V_MPEG4/ISO/AVC
Duration : 2 h 5 min
Bit rate : 1 000 kb/s
Width : 1 920 pixels
Height : 816 pixels
Display aspect ratio : 2.35:1
Frame rate mode : Constant
Frame rate : 24.000 FPS
Color space : YUV
Chroma subsampling : 4:2:0
Bit depth : 8 bits
Scan type : Progressive
Bits/(Pixel*Frame) : 0.027
Stream size : 885 MiB (88%)
Title : .....::::: TaRa :::::.....
Language : Hindi
Default : Yes
Forced : No
===================================================================
Audio
ID : 2
Format : AAC LC
Format/Info : Advanced Audio Codec Low Complexity
Codec ID : A_AAC-2
Duration : 2 h 5 min
Bit rate : 128 kb/s
Channel(s) : 2 channels
Channel layout : L R
Sampling rate : 48.0 kHz
Frame rate : 46.875 FPS (1024 SPF)
Compression mode : Lossy
Delay relative to video : 23 ms
Stream size : 115 MiB (12%)
Title : .....::::: TaRa :::::.....
Language : Hindi
Default : Yes
Forced : No
===================================================================










































#SkTara -> To avoid fakes, ALWAYS check that the torrent was added on fatdemo.co.uk by SkTara

http://fatdemo.co.uk/



Download Fever 2016 Hindi 1080p WEB-DL x264 AAC { TaRa }.mkv torrent


Comments (please add your comment)
No comments



Home - Browse Torrents - Upload Torrent - Stat - Forum - FAQ - Login
fatdemo.co.uk is in compliance with copyrights
2006-2018 fatdemo.co.uk
SitemapKaaval (2015) DVDRip Full Hindi Dubbed Movie Watch Online Watch Kaaval (2015) DVDRip Full Hindi Dubbed Movie & Download Free. Hindi Dubbed Movie Kaaval (2015) DVDRip Full Cast and Crew Details. Film Name :- Kaaval (2015) DVDRip Film Directed By :- V.R. Nagendran Film Written by -- V.R. Nagendran Starring of the Film :- Vimal, Samuthirakani, ‘Punnagai Poo’ Geetha Genres -: Thriller Origin Country -- India Film Language -- Hindi Dubbed   Option -1 NetuTV Player 1 Option -2 WatchVideo Player 2 Option -3 Openload Player 3 Option -4 VideoMega Player ... | Organized Kindle MOBI Library 13 000 Books Part 2 of 2 K-Z | Kirschkernkissen Dinkelkissen Wärmekissen Tupfen 11 Farben und 10 Größen Öko-Tex