fatdemo.co.uk - The Largest Bittorent System Login   |    Register
Latest Articles
Most searched
Hot torrents
Movie Torrents
View Torrent Info: The Vanishing (2018) [720p] [YTS] [YIFY]
View Torrent Info: The Old Man & the Gun (2018) [720p] [YTS] [YIFY]
View Torrent Info: American Hangman (2018) [720p] [YTS] [YIFY]
View Torrent Info: Rust Creek (2018) [720p] [YTS] [YIFY]
View Torrent Info: Where Hands Touch (2018) [720p] [YTS] [YIFY]
View Torrent Info: Constantine City of Demons: The Movie (2018) [720p] [YTS] [YIFY]
View Torrent Info: Jim Button and Luke the Engine Driver (2018) [720p] [YTS] [YIFY]
View Torrent Info: MARS: Inside SpaceX (2018) [720p] [YTS] [YIFY]
View Torrent Info: Wildlife (2018) [720p] [YTS] [YIFY]
View Torrent Info: The Old Man & the Gun (2018) [720p] [YTS] [YIFY]
Hot torrents
TV Torrents
View Torrent Info: vikings.s05e16.hdtv.x264-lucidtv[eztv]
View Torrent Info: The.Big.Bang.Theory.S12E11.HDTV.x264-SVA[eztv]
View Torrent Info: Gotham.S05E01.HDTV.x264-CRAVERS[eztv]
View Torrent Info: The.Blacklist.S06E01.HDTV.x264-KILLERS[eztv]
View Torrent Info: the.orville.s02e02.web.x264-tbs[eztv]
View Torrent Info: Young.Sheldon.S02E11.HDTV.x264-SVA[eztv]
View Torrent Info: Gotham.S05E01.WEB.x264-TBS[eztv]
View Torrent Info: seal.team.s02e11.hdtv.x264-lucidtv[eztv]
View Torrent Info: the.gifted.s02e10.web.x264-tbs[eztv]
View Torrent Info: S.W.A.T.2017.S02E11.HDTV.x264-KILLERS[eztv]
fatdemo.co.uk > Categories > Movies torrents > HD torrents


Browse Movies torrents

Thugs of Hindostan 2018 Hindi 1080p WEB-DL x264 5.1 ESub { TaRa }.mkv torrent



Download torrent: Download Thugs of Hindostan 2018 Hindi 1080p WEB-DL x264 5.1 ESub { TaRa }.mkv torrent Magnet link Bookmark Torrent: Thugs of Hindostan 2018 Hindi 1080p WEB-DL x264 5.1 ESub { TaRa }.mkv Thugs of Hindostan 2018 Hindi 1080p WEB-DL x264 5.1 ESub { TaRa }.mkv torrent | if not working, try instead: Magnet Link
Info hash: 07E2A3B69B1019C7D2EEA6BDFEEAF2C7D447ACBE
Category: Categories > Movies torrents > HD torrents
Trackers:
14    View all torrent trackers >
Health:
 seeds: 0 ,  leechers: 0 |  Update >
Total Size: 1.60 GB
Torrent status: Added by trusted uploader Added by trusted uploader Trusted Uploader Site Friend Superman Sun
Uploader: Trusted Uploader Site Friend Superman Sun
Torrent added: 2019-01-07 16:55:05
 

Download Thugs of Hindostan 2018 Hindi 1080p WEB-DL x264 5.1 ESub { TaRa }.mkv torrent if not working, try downloading torrent using Download Thugs of Hindostan 2018 Hindi 1080p WEB-DL x264 5.1 ESub { TaRa }.mkv via Magnet Link




Torrent Description


Thugs of Hindostan 2018 Hindi 1080p WEB-DL x264 5.1 ESub { TaRa }.mkv


===================================================================
General
Complete name : Thugs of Hindostan 2018 Hindi 1080p WEB-DL x264 5.1 ESub { TaRa }.mkv
Format : Matroska
Format version : Version 4
File size : 1.59 GiB
Duration : 2 h 44 min
Overall bit rate : 1 390 kb/s
===================================================================
Video
ID : 1
Format : AVC
Format/Info : Advanced Video Codec
Format profile : [email protected]
Format settings : CABAC / 4 Ref Frames
Format settings, CABAC : Yes
Format settings, ReFrames : 4 frames
Codec ID : V_MPEG4/ISO/AVC
Duration : 2 h 44 min
Bit rate : 1 200 kb/s
Width : 1 920 pixels
Height : 800 pixels
Display aspect ratio : 2.40:1
Original display aspect rat : 2.40:1
Frame rate mode : Constant
Frame rate : 25.000 FPS
Color space : YUV
Chroma subsampling : 4:2:0
Bit depth : 8 bits
Scan type : Progressive
Bits/(Pixel*Frame) : 0.031
Stream size : 1.37 GiB (86%)
Title : .....::::: TaRa ::::::.....
Language : Hindi
Default : Yes
Forced : No
===================================================================
Audio
ID : 2
Format : AAC LC
Format/Info : Advanced Audio Codec Low Complexity
Codec ID : A_AAC-2
Duration : 2 h 44 min
Bit rate : 192 kb/s
Channel(s) : 6 channels
Channel layout : C L R Ls Rs LFE
Sampling rate : 48.0 kHz
Frame rate : 46.875 FPS (1024 SPF)
Compression mode : Lossy
Stream size : 225 MiB (14%)
Title : .....::::: TaRa ::::::.....
Language : Hindi
Default : Yes
Forced : No
===================================================================
Text
ID : 3
Format : UTF-8
Codec ID : S_TEXT/UTF8
Codec ID/Info : UTF-8 Plain Text
Duration : 2 h 36 min
Bit rate : 34 b/s
Count of elements : 1277
Stream size : 39.1 KiB (0%)
Title : .....::::: TaRa ::::::.....
Language : English
Default : No
Forced : No
===================================================================







































#SkTara -> To avoid fakes, ALWAYS check that the torrent was added on fatdemo.co.uk by SkTara

http://fatdemo.co.uk/



Download Thugs of Hindostan 2018 Hindi 1080p WEB-DL x264 5.1 ESub { TaRa }.mkv torrent


Comments (please add your comment)
No comments



Home - Browse Torrents - Upload Torrent - Stat - Forum - FAQ - Login
fatdemo.co.uk is in compliance with copyrights
2006-2018 fatdemo.co.uk
SitemapDu bist enttarnt - Wie das... | Drum n Bass / Jungle | Tale of Two Airlines