fatdemo.co.uk - The Largest Bittorent System Login   |    Register
Latest Articles
Most searched
Hot torrents
Movie Torrents
View Torrent Info: The Vanishing (2018) [720p] [YTS] [YIFY]
View Torrent Info: Loophole (2019) [720p] [YTS] [YIFY]
View Torrent Info: Acts of Violence (2018) [720p] [YTS] [YIFY]
View Torrent Info: Summer '03 (2018) [720p] [YTS] [YIFY]
View Torrent Info: American Hangman (2018) [720p] [YTS] [YIFY]
View Torrent Info: Rust Creek (2018) [720p] [YTS] [YIFY]
View Torrent Info: Constantine City of Demons: The Movie (2018) [720p] [YTS] [YIFY]
View Torrent Info: Jim Button and Luke the Engine Driver (2018) [720p] [YTS] [YIFY]
View Torrent Info: Detective Chinatown 2 (2018) [720p] [YTS] [YIFY]
View Torrent Info: Still (2018) [720p] [YTS] [YIFY]
Hot torrents
TV Torrents
View Torrent Info: vikings.s05e16.hdtv.x264-lucidtv[eztv]
View Torrent Info: The.Big.Bang.Theory.S12E11.HDTV.x264-SVA[eztv]
View Torrent Info: Gotham.S05E01.HDTV.x264-CRAVERS[eztv]
View Torrent Info: The.Blacklist.S06E01.HDTV.x264-KILLERS[eztv]
View Torrent Info: the.orville.s02e02.web.x264-tbs[eztv]
View Torrent Info: The.Gifted.S02E11.WEB.x264-TBS[eztv]
View Torrent Info: Young.Sheldon.S02E11.HDTV.x264-SVA[eztv]
View Torrent Info: Lethal.Weapon.S03E11.WEB.x264-TBS[eztv]
View Torrent Info: The.Rookie.S01E09.HDTV.x264-KILLERS[eztv]
View Torrent Info: Gotham.S05E01.WEB.x264-TBS[eztv]
fatdemo.co.uk > Categories > Movies torrents > Bollywood/Desi torrents


Browse Movies torrents

Crook (2010) Hindi 1080p 10bit WEBHD x265 HEVC DDP 5.1 ESub ~ {RoCK-HD-STAr} torrent



Download torrent: Download Crook (2010) Hindi 1080p 10bit WEBHD x265 HEVC DDP 5.1 ESub ~ {RoCK-HD-STAr} torrent Magnet link Bookmark Torrent: Crook (2010) Hindi 1080p 10bit WEBHD x265 HEVC DDP 5.1 ESub ~ {RoCK-HD-STAr} Crook (2010) Hindi 1080p 10bit WEBHD x265 HEVC DDP 5.1 ESub ~ {RoCK-HD-STAr} torrent | if not working, try instead: Magnet Link
Info hash: B74A3CFF3CD721AFBA262B2C98919039EE23F857
Category: Categories > Movies torrents > Bollywood/Desi torrents
Trackers:
20    View all torrent trackers >
Health:
 seeds: 0 ,  leechers: 0 |  Update >
Total Size: 3.90 GB
Torrent status: Added by trusted uploader Added by trusted uploader Trusted Uploader Site Friend Superman Sun
Uploader: Trusted Uploader Site Friend Superman Sun
Torrent added: 2019-01-09 11:45:13
 

Download Crook (2010) Hindi 1080p 10bit WEBHD x265 HEVC DDP 5.1 ESub ~ {RoCK-HD-STAr} torrent if not working, try downloading torrent using Download Crook (2010) Hindi 1080p 10bit WEBHD x265 HEVC DDP 5.1 ESub ~ {RoCK-HD-STAr} via Magnet Link




Torrent Description








Crook (2010) Hindi 1080p 10bit WEBHD x265 HEVC DDP 5.1 ESub ~ {RoCK-HD-STAr}





Code:


General
Complete name : Crook (2010) Hindi 1080p 10bit WEBHD x265 HEVC DDP 5.1 ESub ~ {RoCK-HD-STAr}.mkv
Format : Matroska
Format version : Version 4
File size : 3.79 GiB
Duration : 1 h 59 min
Overall bit rate : 4 541 kb/s
Movie name : Crook (2010) Hindi 1080p 10bit WEBHD x265 HEVC DDP 5.1 ESub ---The King Of Entertainment ~ {RoCK-HD-STAr}


Video
ID : 1
Format : HEVC
Format/Info : High Efficiency Video Coding
Format profile : Main [email protected]@Main
Codec ID : V_MPEGH/ISO/HEVC
Duration : 1 h 59 min
Bit rate : 3 898 kb/s
Width : 1 920 pixels
Height : 816 pixels
Display aspect ratio : 2.35:1
Frame rate mode : Constant
Frame rate : 25.000 FPS
Color space : YUV
Chroma subsampling : 4:2:0
Bit depth : 10 bits
Bits/(Pixel*Frame) : 0.100
Stream size : 3.25 GiB (86%)
Title : {RoCK-HD-STAr}
Default : Yes
Forced : No

Audio
ID : 2
Format : E-AC-3
Format/Info : Enhanced AC-3
Commercial name : Dolby Digital Plus
Codec ID : A_EAC3
Duration : 1 h 59 min
Bit rate mode : Constant
Bit rate : 640 kb/s
Channel(s) : 6 channels
Channel layout : L R C LFE Ls Rs
Sampling rate : 48.0 kHz
Frame rate : 31.250 FPS (1536 SPF)
Compression mode : Lossy
Stream size : 547 MiB (14%)
Title : {RoCK-HD-STAr}
Language : Hindi
Service kind : Complete Main
Default : Yes
Forced : No













#McuDudeS -> To avoid fakes, ALWAYS check that the torrent was added on fatdemo.co.uk by McuDudeS

http://fatdemo.co.uk/



Download Crook (2010) Hindi 1080p 10bit WEBHD x265 HEVC DDP 5.1 ESub ~ {RoCK-HD-STAr} torrent


Comments (please add your comment)
No comments



Home - Browse Torrents - Upload Torrent - Stat - Forum - FAQ - Login
fatdemo.co.uk is in compliance with copyrights
2006-2018 fatdemo.co.uk
SitemapVentes se terminant | Jason Martell | Economic Opportunities - 734 Words