fatdemo.co.uk - The Largest Bittorent System Login   |    Register
Latest Articles
Most searched
Hot torrents
Movie Torrents
View Torrent Info: Acts of Violence (2018) [720p] [YTS] [YIFY]
View Torrent Info: Summer '03 (2018) [720p] [YTS] [YIFY]
View Torrent Info: The Last Boy (2019) [720p] [YTS] [YIFY]
View Torrent Info: Brexit (2019) [720p] [YTS] [YIFY]
View Torrent Info: Loophole (2019) [720p] [YTS] [YIFY]
View Torrent Info: Godzilla: The Planet Eater (2018) [720p] [YTS] [YIFY]
View Torrent Info: The Captain (2017) [720p] [YTS] [YIFY]
View Torrent Info: Jim Button and Luke the Engine Driver (2018) [720p] [YTS] [YIFY]
View Torrent Info: Detective Chinatown 2 (2018) [720p] [YTS] [YIFY]
View Torrent Info: Stree (2018) [720p] [YTS] [YIFY]
Hot torrents
TV Torrents
View Torrent Info: The.Big.Bang.Theory.S12E12.HDTV.x264-SVA[eztv]
View Torrent Info: Gotham.S05E02.WEB.x264-TBS[eztv]
View Torrent Info: Brooklyn.Nine-Nine.S06E01.HDTV.x264-KILLERS[eztv]
View Torrent Info: Vikings.S05E17.HDTV.x264-SVA[eztv]
View Torrent Info: Young.Sheldon.S02E12.HDTV.x264-SVA[eztv]
View Torrent Info: Lethal.Weapon.S03E11.WEB.x264-TBS[eztv]
View Torrent Info: The.Orville.S02E03.WEB.x264-TBS[eztv]
View Torrent Info: Criminal.Minds.S14E12.HDTV.x264-KILLERS[eztv]
View Torrent Info: S.W.A.T.2017.S02E12.HDTV.x264-KILLERS[eztv]
View Torrent Info: Chicago.PD.S06E10.WEB.x264-TBS[eztv]
fatdemo.co.uk > Categories > Movies torrents > Bollywood/Desi torrents


Browse Movies torrents

Petta (2019) Hindi 1080p HQ Pre-DvDRiP AAC MoViEsBaBa ExcLuSiVE [1st on NET] torrent



Download torrent: Download Petta (2019) Hindi 1080p HQ Pre-DvDRiP AAC MoViEsBaBa ExcLuSiVE [1st on NET] torrent Magnet link Bookmark Torrent: Petta (2019) Hindi 1080p HQ Pre-DvDRiP AAC MoViEsBaBa ExcLuSiVE [1st on NET] Petta (2019) Hindi 1080p HQ Pre-DvDRiP AAC MoViEsBaBa ExcLuSiVE [1st on NET] torrent | if not working, try instead: Magnet Link
Info hash: FC47A0067FCDAE8BEB854371E89BA0F33B8E20AA
Category: Categories > Movies torrents > Bollywood/Desi torrents
Trackers:
13    View all torrent trackers >
Health:
 seeds: 22 ,  leechers: 6 |  Update >
Total Size: 2.50 GB
Torrent status: Added by trusted uploader Added by trusted uploader Trusted Uploader Site Friend Superman Sun
Uploader: Trusted Uploader Site Friend Superman Sun
Torrent added: 2019-01-11 19:10:30
 

Download Petta (2019) Hindi 1080p HQ Pre-DvDRiP AAC MoViEsBaBa ExcLuSiVE [1st on NET] torrent if not working, try downloading torrent using Download Petta (2019) Hindi 1080p HQ Pre-DvDRiP AAC MoViEsBaBa ExcLuSiVE [1st on NET] via Magnet Link




Torrent Description


Petta
2019 ‧ Drama/Action ‧ 2h 52m
8.3/10 · IMDb
Initial release: January 10, 2019 (USA)
Director: Karthik Subbaraj G.
Music composed by: Anirudh Ravichander
Quality : Pre-DvD 1080p
Size : 2.2Gb | 1.4gb | 700mb | 400mb
Language: Hindi [Best Clean Audio By MidNight [email protected]]
Video Source: TMV
Media Info
Video
ID : 1
Format : AVC
Format/Info : Advanced Video Codec
Format profile : [email protected]
Format settings : CABAC / 4 Ref Frames
Format settings, CABAC : Yes
Format settings, RefFrames : 4 frames
Codec ID : V_MPEG4/ISO/AVC
Duration : 2 h 48 min
Bit rate : 1 866 kb/s
Width : 1 920 pixels
Height : 816 pixels
Display aspect ratio : 2.35:1
Frame rate mode : Constant
Frame rate : 23.976 (24000/1001) FPS
Color space : YUV
Chroma subsampling : 4:2:0
Bit depth : 8 bits
Scan type : Progressive
Bits/(Pixel*Frame) : 0.050
Stream size : 2.13 GiB (85%)
Title : Uploaded By MidNight KiLLeR @MoviesBaba.cc
Writing library : x264 core 157 r2935 545de2f
Encoding settings : cabac=1 / ref=3 / deblock=1:0:0 / analyse=0x3:0x113 / me=hex / subme=7 / psy=1 / psy_rd=1.00:0.00 / mixed_ref=1 / me_range=16 / chroma_me=1 / trellis=1 / 8x8dct=1 / cqm=0 / deadzone=21,11 / fast_pskip=1 / chroma_qp_offset=-2 / threads=16 / lookahead_threads=2 / sliced_threads=0 / nr=0 / decimate=1 / interlaced=0 / bluray_compat=0 / constrained_intra=0 / bframes=3 / b_pyramid=2 / b_adapt=1 / b_bias=0 / direct=1 / weightb=1 / open_gop=0 / weightp=2 / keyint=240 / keyint_min=23 / scenecut=40 / intra_refresh=0 / rc_lookahead=40 / rc=abr / mbtree=1 / bitrate=1866 / ratetol=1.0 / qcomp=0.60 / qpmin=0 / qpmax=69 / qpstep=4 / ip_ratio=1.40 / aq=1:1.00
Language : Tamil
Default : Yes
Forced : No

Audio
ID : 2
Format : MPEG Audio
Format version : Version 1
Format profile : Layer 3
Codec ID : A_MPEG/L3
Codec ID/Hint : MP3
Duration : 2 h 49 min
Bit rate mode : Constant
Bit rate : 320 kb/s
Channel(s) : 2 channels
Sampling rate : 48.0 kHz
Frame rate : 41.667 FPS (1152 SPF)
Compression mode : Lossy
Stream size : 388 MiB (15%)
Title : Uploaded By MidNight KiLLeR @MoviesBaba.cc
Writing library : LAME3.99r
Encoding settings : -m s -V 4 -q 3 -lowpass 20.5
Language : Hindi
Default : Yes
Forced : No
















#uploader6969 -> To avoid fakes, ALWAYS check that the torrent was added on fatdemo.co.uk by uploader6969

http://fatdemo.co.uk/



Download Petta (2019) Hindi 1080p HQ Pre-DvDRiP AAC MoViEsBaBa ExcLuSiVE [1st on NET] torrent


Comments (please add your comment)
No comments



Home - Browse Torrents - Upload Torrent - Stat - Forum - FAQ - Login
fatdemo.co.uk is in compliance with copyrights
2006-2018 fatdemo.co.uk
SitemapRed haired curly chick give... | Télécommande SOMFY Telis RTS 1 Pure | OBLIQ® iPhone 8/7/Plus [Flex Pro] TPU Leather Case SHOCKPROOF Slim Protective